#TITLE:Teeny Weeny String Bikini;
#SUBTITLE:;
#ARTIST:Gunther & The Sunshine Girls;
#TITLETRANSLIT:;
#SUBTITLETRANSLIT:;
#ARTISTTRANSLIT:Gunther & The Sunshine Girls;
#CREDIT:;
#BANNER:Teeny Weeny String Bikini-bn.png;
#BACKGROUND:Teeny Weeny String Bikini-bg.png;
#LYRICSPATH:;
#CDTITLE:pm4cd.png;
#MUSIC:Teeny Weeny String Bikini.mp3;
#OFFSET:0.000;
#SAMPLESTART:84.250;
#SAMPLELENGTH:20.000;
#SELECTABLE:YES;
#BPMS:0.000=132.000;
#STOPS:;
#BGCHANGES:;
// cache tags:
#FIRSTBEAT:1.000;
#LASTBEAT:523.000;
#SONGFILENAME:Songs/Music V.I.P ^_^/Teeny Weeny String Bikini/Teeny Weeny String Bikini.sm;
#HASMUSIC:1;
#HASBANNER:1;
#MUSICLENGTH:238.714;
// end cache tags

//---------------dance-single - ----------------
#NOTES:
     dance-single:
     :
     Hard:
     11:
     1.000,1.000,1.000,1.000,0.140,954.000,416.000,393.000,0.000,189.000:
0000
0000
2000
0000
0000
0000
0000
3200
,
0000
0000
0000
0000
0000
0000
0000
0320
,
0000
0000
0000
0000
0000
0000
0000
0032
,
0000
0000
0000
0000
0000
0000
0000
0023
,
0000
1000
0100
1000
0000
0000
0000
0230
,
0000
0000
0000
0000
0000
0000
0000
2300
,
0000
0000
0000
0000
0000
0000
0000
3002
,
0000
0000
0000
0000
0000
0000
0000
0023
,
0000
0100
0100
0100
0000
0000
0000
1130
,
0001
1100
0001
1100
0001
1100
0001
1100
,
0001
0110
1000
0110
1000
0110
1000
0011
,
1000
0011
1000
0011
1000
0011
1000
0011
,
0100
0010
0001
0010
0100
1000
0100
1001
,
0010
1000
0100
0101
0010
0100
0001
1010
,
0100
0001
0010
0110
0100
1000
0010
0101
,
0010
1000
0100
0011
0100
0001
0010
1100
,
0000
0000
1000
0000
0100
0000
0010
0000
0100
0010
0100
0010
0000
0000
1000
0000
,
0100
0010
0001
0010
0100
1000
0100
1111
,
0001
0010
0100
1000
0100
0000
0001
0000
0010
0000
0100
0000
1000
0000
0101
0000
,
0001
0010
1100
0000
0001
0000
0110
0000
1000
0000
0101
0000
0010
0000
1100
0000
,
0100
0010
0101
0000
0001
0000
1001
0000
1000
0000
0101
0000
0010
0000
1100
0000
,
0001
0100
1010
0000
0100
0000
0101
0000
0010
0000
1100
0000
0001
0000
0110
0000
,
1000
0101
1010
0101
1000
0101
0010
1110
,
1000
0010
0101
0000
0010
0000
1100
0000
0100
0000
0011
0000
0010
0000
1010
0000
,
1000
0100
0011
0000
0100
0000
0101
0000
0010
0000
0110
0000
0100
0000
0101
0000
,
0001
0010
0101
0000
0100
0000
1100
0000
0100
0000
1010
0000
1000
0000
1100
0000
,
0001
0010
1100
0010
0001
0010
1100
0010
0001
0010
1100
0010
0001
0010
2200
0000
,
0001
0000
0010
0000
0001
0000
0010
0000
3310
0000
0000
0000
0001
0001
0002
0000
,
0000
0000
0000
0000
0000
0010
1000
1113
,
0100
0101
0010
1100
0010
0101
0001
1001
,
0100
0011
0001
0101
0010
1010
0100
0011
,
0100
0110
0001
0101
0010
1100
1000
1001
,
0100
0000
0101
0000
1000
1000
0101
0000
0010
0000
0101
0000
1000
0000
0011
0000
,
0100
0110
0100
1100
0001
0110
0100
0101
,
0010
1100
0010
0101
0010
1100
0001
0101
,
0010
1001
0100
0011
0100
1010
1000
1001
,
0100
0010
0001
0010
0100
1000
0100
1011
,
0100
0010
0001
1100
0010
0100
1000
0101
,
0010
0001
0010
1100
0100
0010
0100
1001
,
0100
0010
0001
1010
0100
0010
0001
0110
,
0001
0010
0100
1100
0100
0010
0001
0011
,
0010
1000
0100
0011
0100
0010
0100
1010
,
0100
0001
1000
1001
0001
1000
0010
0110
,
0001
1000
0010
1000
0001
1000
0001
1110
,
0000
0000
0001
0000
0010
0000
0100
0000
0001
0010
0001
0010
0000
0000
0100
0000
,
0010
0100
1000
0100
0010
0001
0010
1101
,
0100
1000
0100
0010
0001
0000
0001
0000
1000
0000
0010
0000
0100
0000
0011
0000
,
0100
1000
0101
0000
0001
0000
0110
0000
1000
0000
0101
0000
0010
0000
1100
0000
,
0001
0010
1001
0000
0100
0000
0101
0000
0010
0000
1100
0000
0001
0000
0110
0000
,
1000
0100
0011
0000
0100
0000
0011
0000
0010
0000
0110
0000
0100
0000
0101
0000
,
0010
0100
1001
0000
0001
0000
0110
0000
0100
0000
1100
0000
0001
0000
1001
0000
,
0010
0100
1010
0000
0010
0000
1100
0000
0001
0000
0110
0000
0100
0000
1100
0000
,
1000
0001
0110
0000
1000
0000
1100
0000
0010
0000
0101
0000
0010
0000
1100
0000
,
0001
0100
0011
0000
0100
0000
0101
0000
0010
0000
1100
0000
0100
0000
1001
0000
,
0010
0000
0000
0000
2010
0000
0000
0000
0200
0000
0000
0000
0022
0000
3033
0300
2200
0000
3300
0000
0022
0000
0033
0000
2200
0000
3300
0000
0022
0000
0000
0000
,
0000
0033
2020
3030
0202
0303
2020
0000
0000
3030
2020
3030
0202
0303
2020
0000
,
0000
0000
0200
0000
0302
3030
0223
0330
2002
3003
0220
0330
2002
3003
0220
0000
,
0000
0000
2332
3003
2020
3030
0220
0000
0000
0330
0202
0303
2020
3030
0202
0000
,
0000
0000
0000
0000
0000
0000
2000
0000
0000
0000
0000
0000
3020
0000
0000
0000
0333
0000
0022
0000
0000
0033
0000
0000
2200
0000
0000
3300
0000
0000
0022
0000
0000
0033
0000
0000
0220
0000
0000
0330
0000
0000
2222
0000
0000
0000
0000
0000
,
0000
0333
3220
0330
0022
0033
2200
0000
0000
0000
3322
0033
0202
0303
2020
0000
,
0000
0000
0000
0000
0000
0000
0002
0000
0000
0000
0000
0000
0203
0000
0000
0000
0300
0000
3232
0000
0000
0303
0000
0000
0220
0000
0000
0330
0000
0000
2020
0000
0000
3030
0000
0000
2002
0000
0000
3003
0000
0000
0220
0000
0000
0000
0000
0000
,
0000
0000
2332
3003
0022
0033
0220
0000
0000
0000
2332
3003
0220
0330
0022
0000
,
0000
0000
0000
0000
0000
0000
0000
0000
2000
0000
0000
0000
0000
0000
0000
0000
3200
0000
0000
0000
0000
0000
0000
0000
2300
0000
0000
0000
0000
0000
0000
0000
0233
0000
0000
0000
0000
0000
0000
0000
0320
0000
0000
0000
0000
0000
0000
0000
0032
0000
0000
0000
0000
0000
0000
0003
3221
0000
0000
0000
0000
0000
0000
0000
,
0000
0000
0000
0000
0000
0000
0000
0000
0000
0000
0001
1000
0001
1000
2332
0000
,
0000
0000
0000
0000
0000
0000
0000
0000
0000
0000
0000
0000
0000
0000
0000
0000
0000
0000
0000
0000
0000
0000
0000
0000
0000
0000
0000
0000
0000
0000
0000
0000
0000
0000
0000
0000
0000
0000
0000
0000
0000
0000
0000
0000
0000
0000
0000
0000
0000
0000
0000
0000
0000
0000
0000
0000
0000
0000
0000
0000
0000
0000
0000
0000
0000
0000
0000
0000
0000
0000
0000
0000
0000
0000
0000
0000
0000
0000
0000
0000
0000
0000
0000
0000
0000
0000
0000
0000
0000
0000
0000
0000
0000
0000
0000
0000
0200
0000
0000
0000
0000
0000
0000
0000
0000
0000
0000
0000
0000
0000
0000
0000
0000
0000
0000
0000
0000
0000
0000
0000
0320
0000
0000
0000
0000
0000
0000
0000
0000
0000
0000
0000
0000
0000
0000
0000
0000
0000
0000
0000
0000
0000
0000
0000
0230
0000
0000
0000
0000
0000
0000
0000
0000
0000
0000
0000
0000
0000
0000
0000
0000
0000
3003
0000
0300
0000
0000
0000
1111
0000
0000
0000
0000
0000
0000
0000
0000
0000
0000
0000
0000
0000
0000
0000
0000
0000
0000
0000
0000
0000
0000
0000
,
0100
0101
0010
1100
0001
1010
0100
0011
,
1000
0000
0101
0000
0100
0100
1100
0000
0010
0000
0101
0000
0010
0000
1100
0000
,
0001
0110
0100
0101
0001
1001
0100
0011
,
0100
0010
0001
0010
0100
1000
0100
1010
,
0100
0011
0100
0101
0010
1100
0001
1001
,
0100
0101
0010
0110
0100
1100
0010
0101
,
1000
0011
0100
0110
0010
0011
1000
1100
,
0010
0000
0101
0000
0001
0001
0011
0000
1000
0000
0000
0000
0010
0000
1111
0000
,
1000
0100
0010
0101
0010
0100
1000
0110
,
0010
0001
0010
0011
0100
0010
0001
0101
,
0010
0100
1000
1010
0010
0001
0010
1100
,
0100
0010
0001
1001
0100
0010
0001
0101
,
0010
0100
1000
1010
0001
0010
0100
0011
,
1000
0100
0010
1100
0100
0010
0100
0101
,
0001
0010
1000
0100
0010
0100
0010
1101
,
0000
0000
0100
0000
0010
0000
0001
0000
0001
1000
0001
1000
0000
0000
0101
0000
,
0010
0100
1000
0101
0010
0001
0010
1111
,
0010
0001
0010
0100
1000
0000
0010
0000
0001
0000
0010
0000
0100
0000
1111
0000
,
0100
0100
0110
0000
0010
0000
0101
0000
0010
0000
1100
0000
0001
0000
1010
0000
,
0010
0010
0011
0000
1000
0000
1001
0000
0100
0000
0101
0000
0010
0000
1100
0000
,
0100
0100
1100
0000
0010
0000
0101
0000
0001
0000
1010
0000
0100
0000
0011
0000
,
1000
1000
1010
0000
0101
0000
1010
0000
0100
0000
0010
0000
0001
0000
1011
0000
,
0100
0001
0011
0000
0100
0000
1010
0000
0001
0000
0110
0000
1000
0000
0101
0000
,
0010
1000
1001
0000
0100
0000
1010
0000
0001
0000
0110
0000
1000
0000
0101
0000
,
0001
0010
1010
0000
0100
0000
1100
0000
0010
0000
0101
0000
1000
0000
0220
0000
,
0001
0000
0000
0000
0300
0000
1100
0000
0000
0000
0000
0000
0100
0000
0000
0000
0000
0000
1002
0000
0000
0000
0000
0000
2230
0000
0000
3300
0000
0000
0220
0000
0000
0330
0000
0000
2200
0000
0000
3300
0000
0000
0220
0000
0000
0000
0000
0000
,
0000
0003
2332
3003
0022
0033
0220
0000
0000
0000
2332
3003
2020
3030
0202
0000
,
0000
0000
0000
0000
2000
0000
0000
0000
3020
0000
0000
0030
2323
0000
3030
0000
0220
0000
0330
0000
0202
0000
0303
0000
0022
0000
0033
0000
2200
0000
0000
0000
,
0000
0000
0000
0000
0022
0000
0033
3300
0220
0000
0330
0000
2002
0000
0000
0000
0000
0000
0000
0000
3223
0000
0330
0000
0202
0000
0303
0000
0220
0000
0000
0000
,
0000
0000
0000
0000
0002
0000
0000
0000
2003
0000
0000
3000
2332
0000
3003
0000
0220
0000
0330
0000
2002
0000
3003
0000
2020
0000
3030
0000
0202
0000
0000
0000
,
0000
0000
2323
3030
2200
3300
2020
0000
0000
0000
3232
0303
0022
0033
2002
0000
,
0000
0000
0000
0000
0200
0000
0000
0000
0320
0000
0000
0030
3223
0000
0330
0000
0202
0000
0303
0000
0220
0000
0330
0000
2020
0000
3030
0000
2002
0000
0000
0000
,
0000
0000
3223
0330
0022
0033
0220
0000
0000
0000
2332
3003
0202
0303
2020
0000
,
0002
0003
0200
0300
0002
0003
0200
0300
0002
0003
0200
0300
0002
0003
3230
0000
,
0000
0000
0000
0000
0000
0000
0000
0320
,
0000
0000
0000
0000
0000
0000
0000
2030
,
0000
0000
0000
0000
0000
0000
0000
3002
,
0000
0000
0000
0000
0000
0000
0000
0000
0200
0000
0000
0000
0000
0000
0000
0300
0200
0000
0000
0000
0000
0000
0000
0300
0200
0000
0000
0000
0000
0000
0000
0000
2000
0000
0000
0000
3000
0000
0000
0000
0020
0000
0000
0000
0030
0000
0000
0000
2000
0000
0000
0000
3300
0000
0000
0000
1113
0000
0000
0000
0000
0000
0000
0000
,
1001
0100
1011
0000
0100
0000
1101
0000
0001
0000
0111
0000
0010
0000
1011
0000
,
1001
0010
1101
0000
0001
0000
1110
0000
0100
0000
1101
0000
0010
0000
1011
0000
,
0101
1000
0111
0000
1000
0000
0111
0000
0010
0000
1110
0000
0001
0000
1101
0000
,
0011
0100
1011
0100
0011
0100
1011
0100
0011
0100
1011
0100
0011
0100
1022
0000
,
0000
0000
0200
0300
0200
0300
2000
3033
0100
0001
0100
0001
0000
0000
1000
0000
,
0010
0100
0001
1000
0010
0100
0001
1101
,
1000
0100
0010
0100
0001
0000
1000
0000
0100
0000
0001
0000
0010
0000
1001
0000
,
0100
0010
1100
0000
0001
0000
0110
0000
0100
0000
0101
0000
0001
0000
0011
0000
,
0010
0001
1010
0000
1000
0000
1100
0000
0010
0000
0110
0000
0001
0000
1010
0000
,
0010
0100
0011
0000
0100
0000
0110
0000
0010
0000
1010
0000
1000
0000
0101
0000
,
0002
0000
0000
0000
2020
0000
0000
0000
3203
0000
0000
0000
2032
0000
0000
0000
0323
0000
0000
0000
3202
0000
0000
0030
0013
0000
0000
0000
1311
0000
0000
0000
,
0110
0001
1100
0000
0110
0000
1011
0000
1010
0000
0101
0000
0110
0000
1101
0000
,
0011
0100
1001
0000
0101
0000
1110
0000
0110
0000
0011
0000
1001
0000
0111
0000
,
0101
0010
1001
0000
0110
0000
0111
0000
1010
0000
1001
0000
1010
0000
1101
0000
,
1010
0100
2002
0000
0110
0000
0110
0000
0110
0000
0113
0000
0101
0000
3122
0000
,
0000
1100
1100
2233
0000
0011
0011
3322
,
0000
0000
0000
0000
0200
0000
0000
0000
2300
0000
0000
0033
3222
0000
0333
0000
0222
0000
0333
0000
2220
0000
3330
0000
2220
0000
3330
0000
2022
0000
0000
0000
,
0000
0000
0000
3033
2202
0000
3303
0000
2022
0000
3033
0000
2202
0000
0000
0000
0000
0000
0000
3303
0222
0000
0333
0000
2220
0000
3330
0000
0222
0000
0000
0000
,
0000
0000
0000
0000
2000
0000
0000
3000
2000
0000
0000
3033
2022
0000
3033
0000
2322
0000
3033
0000
2202
0000
3303
0000
2202
0000
3303
0000
0222
0000
0000
0000
,
0000
0000
0000
0333
2202
0000
3303
0000
2022
0000
3033
0000
2202
0000
0000
0000
0000
0000
0000
3303
0222
0000
0333
0000
2220
0000
3330
0000
0222
0000
0000
0000
,
0000
0000
0000
0000
0000
0000
0000
0000
0000
0000
0000
0000
0000
0000
0000
0000
0000
0000
0000
0000
0000
0000
0000
0000
2000
0000
0000
0000
0000
0000
0000
0000
0000
0000
0000
0000
0000
0000
0000
0000
0000
0000
3000
0000
0000
0000
0000
0000
2000
0000
0000
0000
0000
0000
0000
0000
0000
0000
0000
0000
0000
0000
0000
0000
3303
0000
0000
0000
0000
0000
0000
0000
2202
0000
0000
0000
0000
0000
0000
0000
0000
0000
0000
0000
3333
0000
0000
0000
0000
0000
0000
0000
0000
0000
0000
0000
0222
0000
0000
0000
0000
0000
0000
0000
0000
0000
0000
0000
0333
0000
0000
0000
0000
0000
0000
0000
0000
0000
0000
0000
2202
0000
0000
0000
0000
0000
0000
0000
0000
0000
0000
0000
3303
0000
0000
0000
0000
0000
0000
0000
0000
0000
0000
0000
2220
0000
0000
0000
0000
0000
0000
0000
0000
0000
0000
0000
3330
0000
0000
0000
0000
0000
0000
0000
0000
0000
0000
0000
2202
0000
0000
0000
0000
0000
0000
0000
0000
0000
0000
0000
0000
0000
0000
0000
0000
0000
0000
0000
0000
0000
0000
0000
,
0000
0000
3303
0000
0222
0000
0333
0000
2202
0000
3303
0000
2220
0000
0000
0000
0000
0000
0000
3330
0222
0000
0333
0000
2022
0000
3033
0000
2220
0000
0000
0000
,
0000
0000
0000
0000
0002
0000
0003
0000
0002
0000
0003
0000
0002
0000
0003
0000
0002
0000
0003
0000
0002
0000
3333
0000
2022
0000
0000
3003
2202
0000
0000
0000
,
0000
0000
0000
0000
0000
0000
0000
0000
0000
0000
0000
0000
0000
0000
0000
0000
0030
0000
0003
0000
0022
0000
0000
0033
0022
0000
0000
0033
0022
0000
0000
3300
,
0000
0000
0100
0000
1000
0000
0100
0000
0000
1000
0000
0033
0220
0330
0202
0000
,
0000
0000
0000
0000
0000
0000
0000
2323
,
0000
0000
0000
0000
0000
0000
0000
0000
0000
0000
0000
0000
0000
0000
0000
0000
0000
0000
0000
0000
0000
0000
0000
0000
0002
0000
0000
0000
0000
0000
0000
0000
0000
0000
0000
0000
0000
0000
0000
0000
0000
0000
0000
0000
0000
0000
0000
0000
0203
0000
0000
0000
0000
0000
0000
0000
0000
0000
0000
0000
0000
0000
0000
0000
0000
0000
0000
0000
0000
0000
0000
0000
0302
0000
0000
0000
0000
0000
0000
0000
0000
0000
0000
0000
0000
0000
0000
0000
0000
0000
0000
0000
0000
0000
0000
0000
0203
0000
0000
0000
0000
0000
0000
0000
0000
0000
0000
0000
0000
0000
0000
0000
0000
0000
0000
0000
0000
0000
0000
0000
0302
0000
0000
0000
0000
0000
0000
0000
0000
0000
0000
0000
0000
0000
0000
0000
0000
0000
0000
0000
0000
0000
0000
0000
0203
0000
0000
0000
0000
0000
0000
0000
0000
0000
0000
0000
0000
0000
0000
0000
0000
0000
3030
0000
0300
0000
0000
0000
0220
0000
0000
0000
0000
0000
0000
0000
0000
0000
0000
0000
0000
0000
0000
0000
0000
0000
0000
0000
0000
0000
0000
0000
,
0000
0000
0000
0330
;

//---------------dance-single - ----------------
#NOTES:
     dance-single:
     :
     Medium:
     1:
     0.000,0.000,0.000,0.000,0.000,0.000,0.000,0.000,0.000,0.000:
0000
0000
0000
0000
;

//---------------dance-single - ----------------
#NOTES:
     dance-single:
     :
     Easy:
     1:
     0.000,0.000,0.000,0.000,0.000,0.000,0.000,0.000,0.000,0.000:
0000
0000
0000
0000
;
